Watch & Download One Piece Movie 01-13 x265 | 10 Bit | HEVC – Watch & Download 60MB | 90MB Encoded Anime

Watch One Piece Movie 01-13 x265 | 10 Bit | HEVC Online

5.00 avg. rating (98% score) - 1 vote

One Piece Movie 01-13 x265 | 10 Bit | HEVC 1

Info:
Complete name : [60mbAnime.com] One Piece – Movie 01 – One Piece the Movie.mkv
Format : Matroska
Format version : Version 4
File size : 1 001 MiB
Duration : 51 min 0 s
Overall bit rate : 2 745 kb/s
Encoded date : UTC 2019-09-16 07:26:23
Writing application : mkvmerge v37.0.0 (‘Leave It’) 64-bit
Writing library : libebml v1.3.9 + libmatroska v1.5.2 / Lavf58.20.100

Video
ID : 1
Format : HEVC
Format/Info : High Efficiency Video Coding
Format profile : Main [email protected]@Main
Codec ID : V_MPEGH/ISO/HEVC
Duration : 51 min 0 s
Bit rate : 2 649 kb/s
Width : 1 920 pixels
Height : 1 080 pixels
Display aspect ratio : 16:9
Frame rate mode : Constant
Frame rate : 23.976 (24000/1001) FPS
Color space : YUV
Chroma subsampling : 4:2:0
Bit depth : 10 bits
Bits/(Pixel*Frame) : 0.053
Stream size : 967 MiB (97%)
Writing library : x265 2.9:[Windows][GCC 8.2.0][64 bit] 10bit
Default : Yes
Forced : No
Color range : Limited
Color primaries : BT.709
Transfer characteristics : BT.709
Matrix coefficients : BT.709

Audio
ID : 2
Format : Opus
Codec ID : A_OPUS
Duration : 51 min 0 s
Bit rate : 93.2 kb/s
Channel(s) : 2 channels
Channel layout : L R
Sampling rate : 48.0 kHz
Frame rate : 50.000 FPS (960 SPF)
Compression mode : Lossy
Delay relative to video : -7 ms
Stream size : 34.0 MiB (3%)
Title : Japanese
Language : Japanese
Default : Yes
Forced : No

Text
ID : 3
Format : ASS
Codec ID : S_TEXT/ASS
Codec ID/Info : Advanced Sub Station Alpha
Duration : 50 min 50 s
Bit rate : 124 b/s
Count of elements : 984
Compression mode : Lossless
Stream size : 46.5 KiB (0%)
Title : English
Language : English
Default : Yes
Forced : No

Download One Piece Movie 01-13 x265 | 10 Bit | HEVC

4 Responses to “One Piece Movie 01-13 x265 | 10 Bit | HEVC

Leave a Reply

Your email address will not be published. Required fields are marked *

This site uses Akismet to reduce spam. Learn how your comment data is processed.