Watch & Download Kochikame Movie-01 (1999) [x265] - Watch & Download 60MB | 90MB Encoded Anime

Watch Kochikame Movie-01 (1999) [x265] Online

0.00 avg. rating (0% score) - 0 votes

The wicked multi-billionaire, Shinatora, builds wretched, ugly buildings. The explosives genius calling himself Benten has targeted Shinatora’s empire and begins to destroy the monstrosities that are wiping out whole sections of downtown Tokyo. In cooperation with the local police force, the FBI has sent Lisa Hoshino, a bomb disposal expert, and her robot assistant, Dandy, on a lecture tour of Japan. Ryotsu is reluctantly paired with Lisa to protect the people of the Kameari district. Why does Benten only target Shinatora’s buildings? What is his next target?
Another email warning arrives at the Katsushika Police Station. Benten’s next target is the newly built, gigantic amusement park, Shinatora World. Lisa and Ryotsu hurry to the scene. What they find is a huge Soviet-era rocket armed with a massive bomb powerful enough to obliterate the entire area of Katsushika.

Info:
Complete name : [60mbAnime.com] KochiKame The Movie 1 – English subtitles.mkv
Format : Matroska
Format version : Version 2
File size : 702 MiB
Duration : 1 h 34 min

Video
ID : 1
Format : HEVC
Format/Info : High Efficiency Video Coding
Format profile : Main@L3@Main
Codec ID : V_MPEGH/ISO/HEVC
Duration : 1 h 34 min
Bit rate : 862 kb/s
Width : 716 pixels
Height : 464 pixels
Display aspect ratio : 1.85:1
Frame rate mode : Constant
Frame rate : 23.976 (24000/1001) FPS
Color space : YUV
Chroma subsampling : 4:2:0
Bit depth : 8 bits
Bits/(Pixel*Frame) : 0.108
Stream size : 580 MiB (83%)
Default : Yes
Forced : No

Audio
ID : 2
Format : AAC
Format/Info : Advanced Audio Codec
Format profile : LC
Codec ID : A_AAC-2
Duration : 1 h 34 min
Bit rate : 173 kb/s
Channel(s) : 2 channels
Channel positions : Front: L R
Sampling rate : 48.0 kHz
Frame rate : 46.875 FPS (1024 SPF)
Compression mode : Lossy
Delay relative to video : 9 ms
Stream size : 116 MiB (17%)
Title : Stereo
Language : Japanese
Default : Yes
Forced : No

Watch Online:

Download links

Download Kochikame Movie-01 (1999) [x265]

Comments are closed.